Home

Also sprach zarathustra op 30 trv 176

  1. R. Strauss: Also sprach Zarathustra, Op.30, TrV 176 - Prelude (Sonnenaufgang) Lyrics. Listen to R. Strauss: Also sprach Zarathustra, Op.30, TrV 176 - Prelude (Sonnenaufgang) by Berliner Philharmoniker on JOOX now. Download R. Strauss: Also sprach Zarathustra, Op.30, TrV 176 - Prelude (Sonnenaufgang) MP3 Song from album Richard Strauss - Great Recordings
  2. Also sprach Zarathustra (Thus Spoke Zarathustra), one of the high points of Strauss' early career, was completed in the summer of 1896 and premiered in November of the same year. Sandwiched between Till Eulenspiegels lustige Streiche (1894-1895) and Don Quixote (1896-1897), it was among the works that forever solidified the composer's.
  3. Also sprach Zarathustra, Op.30 (Strauss, Richard) Opus/Catalogue Number Op./Cat. No. Op.30 ; TrV 176 I-Catalogue Number I-Cat. No. IRS 3 Year/Date of Composition Y/D of Comp. 1896 First Pub lication. 1896 - Munich: Joseph Aibl Composer Time Period Comp. Period: Romantic: Piece Styl

Check out Also sprach Zarathustra, Op. 30, TrV 176: I. Prelude (Sonnenaufgang) by Richard Strauss, Berliner Philharmoniker & Karl Böhm on Amazon Music. Stream ad-free or purchase CD's and MP3s now on Amazon.com Also sprach Zarathustra, Op.30, TrV 176 : Prelude (Sonnenaufgang) - Berliner Philharmoniker, Herbert von Karajan 2002 Listen & download mp3 - WorldSr R. Strauss: Also sprach Zarathustra, Op.30, TrV 176 - Prelude (Sonnenaufgang) MP3 Song by Berliner Philharmoniker from the album Strauss, R.: Also sprach Zarathustra; Till Eulenspiegel; Don Juan; Salome's Dance Of The Seven Veils. Download R. Strauss: Also sprach Zarathustra, Op.30, TrV 176 - Prelude (Sonnenaufgang) song on Gaana.com and listen Strauss, R. Also sprach Zarathustra, Op. 30, TrV 176: I. Introduction; Provided to YouTube by Kontor New Media GmbH. Also sprach Zarathustra, Op. 30, TrV 176: I. Introduction · Slovak Philharmonic Orchestra & Zdenek Kosler. Cinema Classics ℗ Edel Records GmbH. Released on: 2009-03-10 Also sprach Zarathustra, Op. 30 (German: [ˈalzo ʃpʁaːx t͡saʁaˈtʊstʁa] (), Thus Spoke Zarathustra or Thus Spake Zarathustra) is a tone poem by Richard Strauss, composed in 1896 and inspired by Friedrich Nietzsche's philosophical 1883-1885 novel Thus Spoke Zarathustra. The composer conducted its first performance on 27 November 1896 in Frankfurt

Entdecken Sie R. Strauss: Also sprach Zarathustra, Op.30, TrV 176 - Prelude (Sonnenaufgang) von Berliner Philharmoniker and Herbert von Karajan bei Amazon Music. Werbefrei streamen oder als CD und MP3 kaufen bei Amazon.de Check out R. Strauss: Also sprach Zarathustra, Op.30, TrV 176 - Prelude (Sonnenaufgang) by Berliner Philharmoniker & Herbert von Karajan & Richard Strauss on Amazon Music. Stream ad-free or purchase CD's and MP3s now on Amazon.com DR11 -1.01 dB -15.45 dB 2:24 04-Also sprach Zarathustra, Op. 30, TrV 176: IV. Von den Freuden und Leidenschaften (Live

Also sprach Zarathustra (Thus Details AllMusi

  1. Also sprach Zarathustra. Op. 30 (allemand) Ainsi parlait Zarathoustra. Op. 30. TrV 176 (français) Editions de Also sprach Zarathustra. TrV 176 (289 ressources dans data.bnf.fr
  2. Strauss: Also sprach Zarathustra, Op. 30, TrV 176 (Live). BR Klassik: 900808. Buy download online. Symphonie-Orchester des Bayerischen Rundfunks, Mariss Janson
  3. Watch the video for Also sprach Zarathustra, Op.30, TrV 176: Prelude (Sonnenaufgang) from Richard Strauss's Movie Classics for free, and see the artwork, lyrics and similar artists
  4. Info for Strauss: Also sprach Zarathustra, Op. 30, TrV 176 (Live). It was as an obedient pupil of his father, the celebrated horn player Franz Strauss, that Richard Strauss began his musical career - entirely in the spirit of the classics and early Romantics, with proven forms and traditional genres
  5. Listen to Also sprach Zarathustra, Op.30, TrV 176: Prelude (Sonnenaufgang) on Spotify. Richard Strauss · Song · 1995

Listen to R. Strauss: Also sprach Zarathustra, Op. 30, Trv 176 - Scriabin: The Poem of Ecstasy, Op. 54 (Live) by Seattle Symphony & Thomas Dausgaard on Apple Music. Stream songs including Also sprach Zarathustra, Op. 30, Trv 176: I. Einleitung, oder Sonnenaufgang (Live), Also sprach Zarathustra, Op. 30, Trv 176: II. Von den Hinterweltlern (Live) and more Listen to Also sprach Zarathustra, Op. 30, TrV 176: Introduction by Richard Strauss for free, and see the artwork, lyrics and similar artists Also sprach Zarathustra, Op.30, TrV 176 Von der großen Sehnsucht Artists: Berliner Philharmoniker, Orchestra Gustavo Dudamel, Conductor Duration: 2:03 First Release: 2013----Track: 4 Composer: Richard Strauss (1864-1949), Composer Title: Also sprach Zarathustra, Op.30, TrV 176 Von den Freuden und Leidenschaften Artists: Berliner Philharmoniker.

Listen to Also sprach Zarathustra, Op. 30, TrV 176: Einleitung (2001 - Odyssee im Weltraum): The Funeral on Spotify. Richard Strauss · Song · 1998 LINE MUSICで Berliner Philharmoniker, Herbert von Karajan 「R. Strauss: Also sprach Zarathustra, Op.30, TrV 176 - Prelude (Sonnenaufgang)」 を聴こう Recommendations for Harmonic Mixing. The following tracks will sound good when mixed with Richard Strauss, Berliner Philharmoniker, Herbert von Karajan - Also sprach Zarathustra, Op.30, TrV 176: Prelude (Sonnenaufgang), because they have similar tempos, adjacent Camelot values, and complementary styles Play and download Strauss: Also sprach Zarathustra; Alpensinfonie; Don Juan; Till Eulenspiegel; Four Last Songs album by Berliner Philharmoniker & Herbert von Karajan - including the songs R. Strauss: Also sprach Zarathustra, Op.30, TrV 176 - Prelude (Sonnenaufgang), R. Strauss: Also sprach Zarathustra, Op.30, TrV 176 - Von den Hinterweltlern, R. Strauss: Also sprach Zarathustra, Op.30.

R

Listen to Strauss: Also sprach Zarathustra by Slovak Philharmonic & Zdenek Kosler on Apple Music. Stream songs including Also sprach Zarathustra, Op. 30, TrV 176: I. Einleitung Sonnenaufgang, Also sprach Zarathustra, Op. 30, TrV 176: II. Von den Hinterweltlern and more Listen to Also sprach Zarathustra op. 30 TrV 176 by Richard Strauss in stunning, lossless sound quality. Stream now on IDAGI Reproduzca canciones completas de R. Strauss: Also sprach Zarathustra, Op. 30, TrV 176 - 7. Der Genesende (Live) de Lucerne Festival Orchestra en su teléfono, computadora y sistema de audio en casa con Napster Conductor Marin Alsop investigates the alluring power behind the grand opening of Also Sprach Zarathustra. (Thus Spoke Zoroaster), tone poem for orchestra, Op. 30 (TrV 176) [Das Tanzlied

Also sprach Zarathustra, Op

Tracklist CD1 01. R. Strauss: Also sprach Zarathustra, Op.30, TrV 176-1. Prelude (Sonnenaufgang) 02. R. Strauss: Also sprach Zarathustra, Op.30, TrV 176-2. Von den. Also sprach Zarathustra, Op. 30, TrV 176: Von den Freuden und Leidenschaften - Zubin Mehta, Richard Strauss, New York Philharmonic Orchestra, Glenn Dicterow | Nghe nhạc hay online mới nhất chất lượng ca Also sprach Zarathustra, op. 30, TrV 176. WDR Sinfonieorchester Cristian Măcelaru Dirigent Anna Vinnitskaya Klavier +++ Das WDR Sinfonieorchester unter der Leitung des prominenten rumänischen Dirigenten Cristian Măcelaru gestaltet die symphonische Tondichtung Also sprach Zarathustra. Deren auftrumpfenden Beginn kennt sogar das Pop- und. Also sprach Zarathustra, Op.30 TrV 176 (1895-96) 31:35. Tone Poem, freely after Friedrich Nietzsche for Large Orchestra. 1. Sehr breit - Immer breiter - 1:59. 2. 'Von den Hinterweltlern'. Weniger breit - Mäßig langsam, mit Andacht - Sehr breit - 3:27. 3. 'Von der großen Sehnsucht'. Bewegter - Früheres Zeitmaß (mäßig langsam)

Listen to your favorite songs from R. Strauss: Also sprach Zarathustra, Op. 30, Trv 176 - Scriabin: The Poem of Ecstasy, Op. 54 (Live) by Seattle Symphony feat. Thomas Dausgaard Now. Stream ad-free with Amazon Music Unlimited on mobile, desktop, and tablet. Download our mobile app now 交响诗《查拉图斯特拉如是说 (Also Spracht Zarathustra Op.30)》的创意来源于哲学家尼采的同名著作,是描写无神论者从唯心走向唯物的一个富于哲理的过程。. 全曲共分九段:第—段日出Sunrise 的标题是理查德·施特劳斯自己加上的。. 虽然只有短短的1分30秒 ,却. Also sprach Zarathustra (op 30; TrV 176) (1970-10-05) (track 1) No cover art available. Release information Format: (unknown) Length: 38:00 Additional details Type: Album Status: Official Language: German Script: Latin Data Quality: Normal Labels. Columbia Masterworks M 30443; Release events. UPC Code: 4011790878126 Release Date: December 2016 Originally recorded in 201 Also sprach Zarathustra, Op. 30, TrV 176: Sehr breit by National Youth Orchestra Of Great Britain & Edward Gardner chart history on Spotify, Apple Music, iTunes and YouTube. Week-by-week music charts, peak chart positions and airplay stats

Also sprach Zarathustra - Wikipedi

  1. Also sprach Zarathustra Op.30 TrV 176:Das Grablied. Also sprach Zarathustra Op.30:Von der Wissenschaft. Also sprach Zarathustra Op.30 TrV 176:Der Genesende. Also sprach Zarathustra Op.30 TrV 176:Das Tanzlied - Das Nachtlied. Also sprach Zarathustra Op.30 TrV 176:Das Nachtwandlerlied. Till Eulenspiegels lustige Streiche Op. 28 TrV 171
  2. [TR24][OF] Mariss Jansons, Symphonie-Orchester des Bayerischen Rundfunks - Strauss - Also sprach Zarathustra, Op. 30, TrV 176 (Live) - 2020 (Classical) » Классика и классика в современной обработке (Hi-Res stereo) :: RuTracker.or
  3. Also sprach Zarathustra, Op. 30, TrV 176: IX. Nachtwandlerlied (Live) (5:18) It was as an obedient pupil of his father, the celebrated horn player Franz Strauss, that Richard Strauss began his musical career - entirely in the spirit of the classics and early Romantics, with proven forms and traditional genres
  4. Also sprach Zarathustra, Op.30, TrV 176 : 1. Prelude (Sonnenaufgang) Chicago Symphony Orchestra Sir Georg Solti | Length : 01:52 Composer: Richard Strauss. Lyrics. Little one it's so nice to have you near me To feel once again the love you bring here Oh my little one, I am sorry for the pain you've felt Say the word and daddy will make it.
  5. Reproduce canciones completas de R. Strauss: Also sprach Zarathustra, Op.30, TrV 176 - Von der großen Sehnsucht por en tu teléfono, ordenador y sistema de audio doméstico con Herbert Von Karajan
  6. gham Symphony Orchestra. Join Napster and play your favorite music offline

Video: Mariss Jansons, Symphonie-Orchester des Bayerischen

Listen to R. Strauss: Also sprach Zarathustra, Op. 30, Trv 176 - Scriabin: The Poem of Ecstasy, Op. 54 (Live) by Thomas Dausgaard, Seattle Symphony, Richard Strauss, Alexander Scriabin. Stream now on IDAGI R. Strauss: Also sprach Zarathustra, Op.30, TrV 176 - 3. Von der großen Sehnsucht Herbert Blomsted Así habló Zaratustra, op. 30 (título original en alemán Also sprach Zarathustra) es un poema sinfónico compuesto por Richard Strauss en 1896.El autor se inspiró en la obra homónima del filósofo Friedrich Nietzsche.El estreno tuvo lugar el 27 de noviembre de 1896 en Frankfurt [1] y desde entonces ha formado parte del repertorio clásico.. La fanfarria inicial, titulada Amanecer en las.

Also sprach Zarathustra

  1. R. Strauss: Also sprach Zarathustra, Op. 30, TrV 176 - Das Nachtwandlerlied ist ein beliebtes Lied von Wiener Philharmoniker & Herbert von Karajan | Erstelle deine eigenen TikTok-Videos mit dem Lied R. Strauss: Also sprach Zarathustra, Op. 30, TrV 176 - Das Nachtwandlerlied und entdecke 0 Videos von neuen und beliebten Erstellern
  2. R. Strauss: Also sprach Zarathustra, Op. 30, TrV 176 - Von der Wissenschaft ist ein beliebtes Lied von Wiener Philharmoniker & Herbert von Karajan | Erstelle deine eigenen TikTok-Videos mit dem Lied R. Strauss: Also sprach Zarathustra, Op. 30, TrV 176 - Von der Wissenschaft und entdecke 0 Videos von neuen und beliebten Erstellern
  3. R. Strauss: Also sprach Zarathustra, Op. 30, Trv 176 - Scriabin: The Poem of Ecstasy, Op. 54 (Live) | Various Composers by Seattle Symphony - Download and listen to the albu
  4. Listen to Also Sprach Zarathustra, Op.30 by Vienna Philharmonic Conducted By Herbert Von Karajan, 4,278 Shazams
  5. R. Strauss: Also sprach Zarathustra, Op.30, TrV 176 - Das Tanzlied - Das Nachtlied · Michel Schwalbé · Berliner Philharmoniker · Herbert von Karajan · Richard Strauss Strauss, R.: Also sprach Zarathustra; Till Eulenspiegel; Don Juan; Salome's Dance Of The Seven Veils ℗ 1974 Deutsche Grammophon GmbH, Berlin Released on: 1995-01-0

Strauss: Also sprach Zarathustra, Op

Listen to R. Strauss: Also sprach Zarathustra, Op. 30, TrV 176 - 1. Einleitung (Sonnenaufgang), a song by Lucerne Festival Orchestra on TIDA Also sprach Zarathustra, Op. 30, Trv 176: III. Von der großen Sehnsucht (Live RICHARD STRAUSS, ALSO SPRACH ZARATHUSTRA, OP. 30, TRV 176 Also sprach Zarathustra, Op. 30, is een symfonisch gedicht uit 1896 van de Duitse componist Richard Strauss, geïnspireerd door de filosofische roman Also sprach Zarathustra uit 1883-85 van Friedrich Nietzsche. Het eerste deel is sinds 1968 beroemd door het gebruik i TrV 176: Also sprach Zarathustra: Kaufempfehlung: CD: Also sprach Zarathustra op.30 (Hänssler, DDD, 2001/02) Richard Strauss (1864-1949) Stereoplay 09 / 04: Eine effektvolle, farbige Orchesterfantasie, die sich von den späteren Strauss-Tondichtungen duch einen gesunden Mangel an Programm-Baedeckerei abhebt. Das kunstvolle Spiel der Themen. Entdecken Sie Also sprach Zarathustra, Op. 30, TrV 176 : Also sprach Zarathustra, Op. 30, TrV 176: Introduction (2001 - A Space Odyssey: Main Theme) von Zdenek Kosler bei Amazon Music. Werbefrei streamen oder als CD und MP3 kaufen bei Amazon.de

Also sprach Zarathustra, Op. 30, TrV 176 - 1. Prelude - Sonnenaufgang (查拉图斯特拉如是说,作品30,TrV 176 - 第1首 前奏曲 - 日出 슈트라우스 차라투스트라는 이렇게 말했다 ('2001 스페이스 오딧세이' 테마) Also sprach Zarathustra (Thus Spoke Zoroaster), tone poem for orchestra, Op. 30 (TrV 176) 2001: A Space Odyssey (Theme Also sprach Zarathustra, Op. 30, TrV 176 デイヴィッド・ベル - David Bell (オルガン) ロンドン・フィルハーモニー管弦楽団 - London Philharmonic Orchestr

‎R. Strauss: Also sprach Zarathustra, Op. 30, Trv 176 ..

交響詩「ツァラトゥストラはかく語りき」 Op. 30, TrV 176. Also sprach Zarathustra, Op. 30, TrV 176. 1. ウィーン・フィルハーモニー管弦楽団 - Vienna Philharmonic Orchestra; クレメンス・クラウス - Clemens Krauss (指揮 Download on Amazon - Also sprach Zarathustra, Op. 30, TrV 176: Prelude (Sonnenaufgang) Play on Apple Music - Also sprach Zarathustra, Op. 30, TrV 176: Prelude (Sonnenaufgang) Download on iTunes - Also sprach Zarathustra, Op. 30, TrV 176: Prelude (Sonnenaufgang) Play on Spotify - Also sprach Zarathustra, Op. 30, TrV 176: Prelude (Sonnenaufgang) Play on YouTube - Also sprach Zarathustra, Op. 30.

Richard Strauss, Berliner Philharmoniker, Gustavo Dudamel

Also sprach zarathustra, op. 30, TRV 176 : also sprach zarathustra, op. 30, TRV 176: von den freuden und leidenschafte Listen to your favorite songs from Strauss, R.: Also Sprach Zarathustra, Op. 30 / Burleske in D Minor, Trv 145 by Fiore, John Now. Stream ad-free with Amazon Music Unlimited on mobile, desktop, and tablet. Download our mobile app now Also sprach Zarathustra, Op. 30, TrV 176: 1. Einleitung (Sonnenaufgang) - listen for the BASS at the end Also sprach Zarathustra, Op. 30, TrV 176: Das Grablied/Zubin Mehtaの音楽ダウンロード・試聴・スマホ対応の高音質な音楽をお探しならヤマハの「mysound」! 収録アルバム『Strauss: Also sprach Zarathustra, Op. 30

Also sprach Zarathustra / Salome's Dance / Der

R. Strauss: Also sprach Zarathustra, Op. 30, TrV 176 - Von der großen Sehnsucht R. Strauss: Also sprach Zarathustra, Op. 30, TrV 176 - Von den Freuden und Leidenschaften R. Strauss: Also sprach Zarathustra, Op. 30, TrV 176 - Das Grablie R. Strauss: Also sprach Zarathustra, Op.30 - Von den Freuden und Leidenschaften (Live At Philharmonie, Berlin / 2012) Berliner Philharmoniker, Gustavo Dudamel 1:5 Also sprach Zarathustra, Op. 30, TrV 176: Das Tanzlied/Zubin Mehtaの音楽ダウンロード・試聴・スマホ対応の高音質な音楽をお探しならヤマハの「mysound」! 収録アルバム『Strauss: Also sprach Zarathustra, Op. 30 DR8 -0.32 dB -13.39 dB 1:50 01-Also sprach Zarathustra, Op. 30, TrV 176: 1. Einleitung (Sonnenaufgang) (Live) DR13 -3.75 dB -23.60 dB 3:43 02-Also sprach Zarathustra, Op. 30, TrV 176: 2. Von den Hinterweltlern (Live) DR13 -0.74 dB -19.87 dB 2:09 03-Also sprach Zarathustra, Op. 30, TrV 176: 3.. R. Strauss: Also sprach Zarathustra, Op. 30, TrV 176 - 3. Von der großen Sehnsuch

SA-CD

Play and download Strauss: Also sprach Zarathustra; Alpensinfonie; Don Juan; Till Eulenspiegel; Four Last Songs album by Berliner Philharmoniker & Herbert von Karajan - including the songs R. Strauss: Also sprach Zarathustra, Op.30, TrV 176 - Prelude (Sonnenaufgang), R. Strauss: Also sprach Zarathustra, Op.30, TrV 176 - Von den Hinterweltlern, R. Strauss: Also sprach Zarathustra, Op.30. Tracklist. 1. Fritz Reiner - Also sprach Zarathustra (Thus Spoke Zoroaster), tone poem for orchestra, Op. 30 (TrV 176)~Sunrise. 2. Fritz Reiner - Also sprach Zarathustra (Thus Spoke Zoroaster), tone poem for orchestra, Op. 30 (TrV 176)~Of the people of the unseen world. 3

Bavarian Radio Symphony Orchestra & Mariss Jansons - Strauss: Also sprach Zarathustra, Op. 30, TrV 176 (Live) (2020) [FLAC 24bit/48kHz] Posted by mqs / Posted 1 year ago June 25, 2020 Bavarian Radio Symphony Orchestra & Mariss Jansons - Strauss: Also sprach Zarathustra, Op. 30, TrV 176 (Live) (2020 02. Strauss: Also sprach Zarathustra, Op. 30, TrV 176: Of Joys and Passions - The Song of the Grave 03. Strauss: Also sprach Zarathustra, Op. 30, TrV 176: Of Science and Learning 04. Strauss: Also sprach Zarathustra, Op. 30, TrV 176: The Convalescent - The Dance Song - Song of the Night Wanderer 05. Strauss: Don Juan, Op. 20, TrV 156 06 Einleitung —/Also sprach Zarathustra, Op. 30, TrV 176 - City Of Birmingham Symphony Orchestr

Key & BPM for Also sprach Zarathustra, Op

ファイル形式. 金額. 購入. flac 96kHz/24bit ¥3,259. MQA 96kHz/24bit ¥3,25 Tracklist 1. 1. Andrew Litton - Also sprach Zarathustra (Thus Spoke Zoroaster), tone poem for orchestra, Op. 30 (TrV 176)~Sunrise; 2. Andrew Litton - Also sprach Zarathustra (Thus Spoke Zoroaster), tone poem for orchestra, Op. 30 (TrV 176)~Of The People of The Unseen Worl Also sprach Zarathustra (Thus Spoke Zoroaster), tone poem for orchestra, Op. 30 (TrV 176) Sehr breit - Immer breiter - 'Von den Hinterweltlern'. Weniger breit - Mäßig langsam, mit Andacht - Sehr breit - 'Von der großen Sehnsucht'. Bewegter - Früheres Zeitmaß (mäßig langsam) - 'Von den Freuden- und Leidenschaften'

Strauss: Also sprach Zarathustra; Alpensinfonie; Don Juan

Strauss: Also sprach Zarathustra, Op. 30, TrV 176 (Live)的话题 · · · · · · ( 全部 条) 什么是话题 无论是一部作品、一个人,还是一件事,都往往可以衍生出许多不同的话题 Also sprach Zarathustra (Thus Spoke Zoroaster), tone poem for orchestra, Op. 30 (TrV 176): Of the D

Also sprach Zarathustra, Op. 30 is a tone poem by Richard Strauss, composed in 1896 and inspireNew content will be added above the current area of focus upon selectionAlso sprach Zarathustra, Op. 30 is a tone poem by Richard Strauss, composed in 1896 and inspired by Friedrich Nietzsche's philosophical 1883-1885 novel Thus Spoke Zarathustra Faixas:Prelude (Sonnenaufgang) (Also Sprach Zarathustra, Op. 30, Trv 176)Von Den Hinterweltlern (Also Sprach Zarathustra, Op. 30, Trv 176)Von Der Großen Sehnsucht (Also Sprach Zarathustra, Op. 30, Trv 176)Von Den Freuden Und Leidenschaften (Also Sprach Zarathustra, Op. 30, Trv 176)Das Grablied (Also Also sprach Zarathustra, Op. 30 is a song from 2001 Space Odyssey featured in Cosmic Scrat-tastrophe, Ice Age: Collision Course, and Scrat: Spaced Out In these three media, Scrat buries his acorn on an Asteroid, acts like an astronaut who salutes like a soldier, but the music was interrupted as the Asteroid breaks apart before screaming towards Earth Strauss: Also sprach Zarathustra, Op.30, TrV 176-Prelude (Sonnenaufgang) (Live) 02. R. Strauss: Also sprach Zarathustra, Op.30-Von den Hinterweltlern (Live At Philharmonie, Berlin / 2012) 03. R. Strauss: Also sprach Zarathustra, Op.30-Von der großen Sehnsucht (Live At Philharmonie, Berlin / 2012

‎Strauss: Also sprach Zarathustra by Slovak Philharmonic

Also sprach Zarathustra, Op. 30, TrV 176 for Large Orchestra: Sehr breit - Immer breiter - 2. Also sprach Zarathustra, Op. 30, TrV 176 for Large Orchestra: 'Von den Hinterweltlern' Also sprach Zarathustra op.30. Herkömmliche CD, die mit allen CD-Playern und Computerlaufwerken, aber auch mit den meisten SACD- oder Multiplayern abspielbar ist. Hörprobe Track 4: Horn Concerto No. 1 in E flat major, Op. 11 (TrV 117): Rondo Also sprach Zarathustra (Thus Spoke Zoroaster), tone poem for orchestra, Op. 30 (TrV 176): Von der großen Sehnsuch

‏ ‎‡t Also sprach Zarathustra. ‏ ‎‡n TrV 176 ‏ 100 1 _ ‎‡a Strauss, Richard ‏ ‎‡d 1864-1949 ‏ ‎‡t Also sprach Zarathustra ‏ 100 | _ ‎‡a Strauss, Richard, 1864-1949. ‏ ‎‡t Also sprach Zarathustra R. Strauss: Also sprach Zarathustra, Op. 30, TrV 176. Also sprach Zarathustra von Richard Strauss - Noten Also sprach Zarathustra ist die sechste der Tondichtungen von Richard Strauss.Sie basiert auf dem gleichnamigen Buch des Philosophen Friedrich Nietzsche und entstand im Jahr 1896 So kann man den Beginn der Tondichtung Also sprach. Strauss: Also sprach Zarathustra, Op. 30, TrV 176 R. Strauss: Die Frau ohne Schatten, Op. 65, TrV 234 R. Strauss: Don Juan & Symphony No. 2 in F Minor (Live) R.シュトラウス:英雄の生涯&ドン・ファン Arabella Strauss: Der Rosenkavalier R. Strauss: Lieder R. Strauss: Symphonia domestica, Op. 53, TrV 209 & Die Tageszeiten, Op. 76. Richard Strauss: Also sprach Zarathustra, Op. 30, TrV 176 & Don Juan, Op. 20, TrV 156 - Michael Tilson Thoma

Epic neuronal culture - YouTubeNielsen: Symphonies NosThe Greatest Classical Show on Earth - Various ArtistsY2K: A Doomsday Collection for the Coming Crash - Various